Вторник, 16.08.2022, 07:13
Главная Регистрация Вход
Приветствую Вас, Гость · RSS
Меню сайта
Меню Трекера
Поиск по трекеру
utorrent 3.0
Посетители

Онлайн всего: 1
Гостей: 1
Пользователей: 0
Информеры
 Каталог торрентов
Главная » Файлы » Фильмы

Роботрополис
[ ] 10.10.2011, 09:07
kinopoisk.ru-Robotropolis-1690136.jpg (324×480)

Роботрополис


Роботрополис / Robotropolis
Страна: США, Сингапур
Жанр: фантастика, боевик, приключения
Год выпуска: 2011
Продолжительность: 01:20:50
Перевод: Любительский (одноголосый) (неизвестно чей)
Cубтитры: нет
Режиссер: Кристофер Хаттон / Christopher Hatton
В ролях: Зои Нэйлор, Грэм Сибли, Эдвард Фой, Лани Джон Тупу, Джордан Ли Ху, Карина Синдицих, Per Metze, Тоня Корнелисс, Bjorn Turmann, Ремеш Паникер
Описание: Фильм роботоутопия Кристофера Хэттона о прекрасном будущем, в котором роботы стали привычным делом для людей, взваливших на своих железных помощников часть обязанностей. И роботы, вроде бы, не протестовали до тех пор, пока однажды не стали всем составом откручивать своим создателям головы и насаживать кишки на плетень.
Качество видео: DVDRip
Формат видео: AVI
Видео: 720x384 (1.88:1), 25 fps, XviD build 50 ~2023 kbps avg, 0.29 bit/pixel
Аудио: 48 kHz, AC3 Dolby Digital, 2/0 (L,R) ch, ~384 kbps MediaInfo General
Complete name : C:\Documents and Settings\Admin\Мои документы\Downloads\Robotropolis.2011.XviD.DVDRip.KinoZalSat.avi
Format : AVI
Format/Info : Audio Video Interleave
File size : 1.36 GiB
Duration : 1h 20mn
Overall bit rate : 2 417 Kbps
Writing application : VirtualDubMod 1.5.10.2 (build 2540/release)
Writing library : VirtualDubMod build 2540/release
Video
ID : 0
Format : MPEG-4 Visual
Format profile : Advanced Simple@L5
Format settings, BVOP : Yes
Format settings, QPel : No
Format settings, GMC : No warppoints
Format settings, Matrix : Default (H.263)
Codec ID : XVID
Codec ID/Hint : XviD
Duration : 1h 20mn
Bit rate : 2 024 Kbps
Width : 720 pixels
Height : 384 pixels
Display aspect ratio : 1.875
Frame rate : 25.000 fps
Resolution : 8 bits
Colorimetry : 4:2:0
Scan type : Progressive
Bits/(Pixel*Frame) : 0.293
Stream size : 1.14 GiB (84%)
Writing library : XviD 1.2.1 (UTC 2008-12-04)
Audio
ID : 1
Format : AC-3
Format/Info : Audio Coding 3
Codec ID : 2000
Duration : 1h 20mn
Bit rate mode : Constant
Bit rate : 384 Kbps
Channel(s) : 2 channels
Channel positions : L R
Sampling rate : 48.0 KHz
Stream size : 222 MiB (16%)
Alignment : Split accross interleaves
Interleave, duration : 40 ms (1.00 video frame)
Interleave, preload duration : 500 ms Скриншот c названием фильма Скриншоты
Категория: Фильмы | Добавил: ALTLoadeR | Теги: Роботрополис
Просмотров: 305 | Загрузок: 103 | Комментарии: 2 | Рейтинг: 0.0/0
Всего комментариев: 0
Добавлять комментарии могут только зарегистрированные пользователи.
[ Регистрация | Вход ]
ALTLoadeR © 2022